Subscribe ON Youtube For Latest Update On Email
www.Khatrilive.Wapka.Me
www.khatrilive.in
www.Khatrilive.com
…::: Free Download HD MKV Movies, Bluray Movies, PC Movies, Mobile Movies, Tab Movies, 720p Movies, 1080p Movies, DVDRip Movies,

BRRip Movies, HDRIP Movies, YIFY Movies, Full HD (High Definition) Best Quality Movies, and also Download 300MB 480p Small Size
compressed Movies with fine clear picture quality.WEST DOWNLOAD FROM

WWW.KHATRILIVE.IN+.COM
KHATRILIVE.IN
DOWNLOAD THE BEST WORLD MKVMP4 HD MOVIES WAP SITEGOOD
Bollywood Movies List
Dual Audio & Dubbed Movies List
Dual Audio & SAUTH Movies List
Hollywood English Movies 720p 1080p 480p
Punjabi Movies List
!! Mp4 HQ HD Avi Mp4 3Gp Tab& All Mobile Movies
!! Bollywood High MP4 HD quality
login| ▼Registration
Guestbook
PC Movies 1080p 720p 480p Mkv Avi Mp4 Format High Qaulity HD Movie
Subscribe ON Youtube For Latest Update On Email
Video ID : 1 Format : AVC Format/Info : Advanced Video Codec Format profile : High@L4.1 Format settings, CABAC : Yes Format settings, ReFrames : 5 frames Codec ID : avc1 Codec ID/Info : Advanced Video Coding Duration : 1 h 30 min Bit rate : 2 200 kb/s Width : 1 912 pixels Height : 796 pixels Display aspect ratio : 2.40:1 Frame rate mode : Variable Frame rate : 24.000 FPS Minimum frame rate : 12.000 FPS Maximum frame rate : 24.000 FPS Color space : YUV Chroma subsampling : 4:2:0 Bit depth : 8 bits Scan type : Progressive Bits/(Pixel*Frame) : 0.060 Stream size : 1.39 GiB (85%) Writing library : x264 core 142 r2479 dd79a61 Encoding settings : cabac=1 / ref=5 / deblock=1:-1:-1 / analyse=0x3:0x133 / me=umh / subme=9 / psy=1 / psy_rd=1.00:0.15 / mixed_ref=1 / me_range=16 / chroma_me=1 / trellis=2 / 8x8dct=1 / cqm=0 / deadzone=21,11 / fast_pskip=1 / chroma_qp_offset=-3 / threads=12 / lookahead_threads=1 / sliced_threads=0 / nr=0 / decimate=1 / interlaced=0 / bluray_compat=0 / constrained_intra=0 / bframes=3 / b_pyramid=2 / b_adapt=2 / b_bias=0 / direct=3 / weightb=1 / open_gop=0 / weightp=2 / keyint=240 / keyint_min=24 / scenecut=40 / intra_refresh=0 / rc_lookahead=60 / rc=2pass / mbtree=1 / bitrate=2200 / ratetol=1.0 / qcomp=0.60 / qpmin=0 / qpmax=69 / qpstep=4 / cplxblur=20.0 / qblur=0.5 / vbv_maxrate=62500 / vbv_bufsize=78125 / nal_hrd=none / filler=0 / ip_ratio=1.40 / aq=1:1.00 Language : English Encoded date : UTC 2017-01-02 18:31:31 Tagged date : UTC 2017-01-02 18:31:31 Color range : Limited Color primaries : BT.709 Transfer characteristics : BT.709 Matrix coefficients : BT.709 Menus : 5 Audio ID : 2 Format : AC-3 Format/Info : Audio Coding 3 Mode extension : CM (complete main) Format settings, Endianness : Big Codec ID : ac-3 Duration : 1 h 30 min Bit rate mode : Constant Bit rate : 384 kb/s Channel(s) : 6 channels Channel positions : Front: L C R, Side: L R, LFE Sampling rate : 48.0 kHz Frame rate : 31.250 FPS (1536 spf) Bit depth : 16 bits Compression mode : Lossy Stream size : 248 MiB (15%) Title : Surround / Surround Language : English Subtitles : English Default : Yes Alternate group : 1 Encoded date : UTC 2017-01-02 18:31:31 Tagged date : UTC 2017-01-02 18:31:31 Menu ID : 5 Codec ID : text Duration : 1 h 30 min Language : English Encoded date : UTC 2017-01-02 21:16:34 Tagged date : UTC 2017-01-02 21:16:34 Bit rate mode : CBR Menu For : 1 00:00:00.000 : Chapter 1 00:23:06.125 : Chapter 2 00:54:39.167 : Chapter 3 01:26:14.167 : Chapter 4
DOWNLOAD FirstBorn 2016 1080p WEB-DL x264 AC31.6GB MKV
Home |
Back |
Top ▲
Online 0 To day User 14669
Download Bollywood full movie for free
Download Android App for Free
Vidmate  New Apps  Shareit  more