www.khatrilive.wapka.me
www.Khatrilive.In-
www.khatrilive.com
PC Movies 1080p 720p Mkv HD Format NEW Domain IS KHATRILIVE.COM
…::: Free Download HD MKV Movies, Bluray Movies, PC Movies, Mobile Movies, Tab Movies, 720p Movies, 1080p Movies, DVDRip Movies,

BRRip Movies, HDRIP Movies, YIFY Movies, Full HD (High Definition) Best Quality Movies, and also Download 300MB 480p Small Size
compressed Movies with fine clear picture quality.WEST DOWNLOAD FROM

WWW.KHATRILIVE.IN+.COM
KHATRILIVE.IN
DOWNLOAD THE BEST WORLD MKVMP4 HD MOVIES WAP SITEGOOD
Bollywood Movies List
Dual Audio & Dubbed Movies List
Dual Audio & SAUTH Movies List
Hollywood English Movies 720p 1080p 480p
Punjabi Movies List
!! Mp4 HQ HD Avi Mp4 3Gp Tab& All Mobile Movies
!! Bollywood High MP4 HD quality
login| ▼Registration
Guestbook
PC Movies 1080p 720p 480p Mkv Avi Mp4 Format High Qaulity HD Movie
Source: BD50 @ DDR Format : Matroska File size : 2.60 GiB Duration : 2 h 36 min Overall bit rate : 2 367 kb/s Video ID : 1 Format : AVC Format/Info : Advanced Video Codec Format profile : High@L4.1 Format settings, CABAC : Yes Format settings, ReFrames : 4 frames Codec ID : V_MPEG4/ISO/AVC Duration : 2 h 36 min Bit rate : 2 197 kb/s Width : 1 920 pixels Height : 800 pixels Display aspect ratio : 2.40:1 Frame rate mode : Constant Frame rate : 24.000 FPS Color space : YUV Chroma subsampling : 4:2:0 Bit depth : 8 bits Scan type : Progressive Bits/(Pixel*Frame) : 0.060 Stream size : 2.41 GiB (93%) Default : Yes Forced : No Color range : Limited Color primaries : BT.709 Transfer characteristics : BT.709 Matrix coefficients : BT.709 Audio Format : AAC Format/Info : Advanced Audio Codec Format profile : LC Codec ID : A_AAC Duration : 2 h 36 min Bit rate : 160 kb/s Channel(s) : 6 channels Channel positions : Front: L C R, Side: L R, LFE Sampling rate : 48.0 kHz Frame rate : 46.875 FPS (1024 spf) Compression mode : Lossy Delay relative to video : 9 ms Stream size : 179 MiB (7%) Language : Hindi Default : Yes Forced : No
DOWNLOAD AE DIL HAI MUSHKIL (2016) 1080p Blu-Ray x264 AAC 5.1 ESub -DDR – 2.61 GB MKV
Home |
Back |
Top ▲
Online 0 To day User 11194
Download Bollywood full movie for free
Download Android Game for Free