www.khatrilive.wapka.me
www.Khatrilive.In-
www.khatrilive.com
PC Movies 1080p 720p Mkv HD Format NEW Domain IS KHATRILIVE.COM
…::: Free Download HD MKV Movies, Bluray Movies, PC Movies, Mobile Movies, Tab Movies, 720p Movies, 1080p Movies, DVDRip Movies,

BRRip Movies, HDRIP Movies, YIFY Movies, Full HD (High Definition) Best Quality Movies, and also Download 300MB 480p Small Size
compressed Movies with fine clear picture quality.WEST DOWNLOAD FROM

WWW.KHATRILIVE.IN+.COM
KHATRILIVE.IN
DOWNLOAD THE BEST WORLD MKVMP4 HD MOVIES WAP SITEGOOD
Bollywood Movies List
Dual Audio & Dubbed Movies List
Dual Audio & SAUTH Movies List
Hollywood English Movies 720p 1080p 480p
Punjabi Movies List
!! Mp4 HQ HD Avi Mp4 3Gp Tab& All Mobile Movies
!! Bollywood High MP4 HD quality
login| ▼Registration
Guestbook
PC Movies 1080p 720p 480p Mkv Avi Mp4 Format High Qaulity HD Movie
Source : Over Net Format : Matroska Format version : Version 4 / Version 2 File size : 911 MiB Duration : 2 h 32 min Overall bit rate mode : Variable Overall bit rate : 835 kb/s Encoded date : UTC 2016-12-24 17:34:08 Writing application : mkvmerge v8.1.0 ('Psychedelic Postcard') 32bit Writing library : libebml v1.3.1 + libmatroska v1.4.2 Video ID : 1 Format : AVC Format/Info : Advanced Video Codec Format profile : High@L3 Format settings, CABAC : Yes Format settings, ReFrames : 4 frames Codec ID : V_MPEG4/ISO/AVC Duration : 2 h 32 min Bit rate : 663 kb/s Width : 704 pixels Height : 304 pixels Display aspect ratio : 2.35:1 Frame rate mode : Constant Frame rate : 25.000 FPS Color space : YUV Chroma subsampling : 4:2:0 Bit depth : 8 bits Scan type : Progressive Bits/(Pixel*Frame) : 0.124 Stream size : 723 MiB (79%) Writing library : x264 core 148 r2638 7599210 Default : Yes Forced : No Audio #1 ID : 2 Format : AAC Format/Info : Advanced Audio Codec Format profile : LC Codec ID : A_AAC Duration : 2 h 32 min Bit rate : 64.0 kb/s Channel(s) : 2 channels Channel positions : Front: L R Sampling rate : 48.0 kHz Frame rate : 46.875 FPS (1024 spf) Compression mode : Lossy Delay relative to video : 20 ms Stream size : 69.8 MiB (8%) Language : Hindi Default : Yes Forced : Yes
DOWNLOAD Dangal 2016 pDvd Rip Dual Audio (Hindi-Tamil) x264 Aac Mp3 By Sam – 911 MB MKV
Home |
Back |
Top ▲
Online 0 To day User 98381
Download Bollywood full movie for free
Download Android App for Free